<?xml version="1.0" standalone="no"?>
<!DOCTYPE svg PUBLIC "-//W3C//DTD SVG 1.1//EN" "http://www.w3.org/Graphics/SVG/1.1/DTD/svg11.dtd" >
<svg xmlns="http://www.w3.org/2000/svg">
<metadata>Generated by IcoMoon</metadata>
<defs>
<font id="chipotle" horiz-adv-x="1024">
<font-face units-per-em="1024" ascent="960" descent="-64" />
<missing-glyph horiz-adv-x="1024" />
<glyph unicode="&#x20;" horiz-adv-x="512" d="" />
<glyph unicode="&#xe600;" glyph-name="uniE600" horiz-adv-x="1020" d="M1008.49 473.984l-421.613 470.506c-16.242 18.586-46.548 20.93-65.134 4.521s-20.93-46.548-4.688-65.134l351.624-391.307h-822.13c-25.618 0-46.548-20.93-46.548-46.548s20.93-46.548 46.548-46.548h822.13l-351.624-386.619c-16.242-18.586-16.242-48.892 2.344-65.134 9.377-9.377 20.93-11.721 30.307-11.721 11.721 0 25.618 4.688 34.995 13.898l421.613 461.129c18.418 18.753 18.418 46.716 2.177 62.957z" />
<glyph unicode="&#xe601;" glyph-name="uniE601" horiz-adv-x="633" d="M587.963 488.575l-524.549 472.68-63.414-70.442 493.093-444.235-493.093-441.391 63.414-70.442 532.078 479.373 37.312 35.137z" />
<glyph unicode="&#xe602;" glyph-name="uniE602" horiz-adv-x="501" d="M37.145-65.255l-37.312 34.803 434.029 473.516-434.029 485.898 37.312 32.293 463.644-518.191z" />
<glyph unicode="&#xe603;" glyph-name="uniE603" horiz-adv-x="1740" d="M1737.328 497.831c-6.15 30.749-77.751 90.71-77.751 90.71s-121.020 99.496-151.33 108.061-315.399 86.537-337.143 90.71c-9.884 1.977-92.028 14.935-165.167 26.137-24.599 31.408-57.325 63.914-70.943 71.382-22.842 13.398-63.914 44.147-86.976 48.32-22.842 4.393-104.986 30.749-155.064 26.356-48.759-4.393-86.976-8.566-86.976-8.566s-91.149-26.356-104.986-35.362c-5.271-3.295-17.132-10.543-32.067-19.987-16.473 0.659-32.287 0.659-45.684-0.22-69.186-4.393-203.164 0-254.998-8.566s-116.627-73.578-121.020-86.537l-8.566-21.524c0 0-30.31-103.669-30.31-121.020s-8.566-77.751-8.566-121.020 12.959-164.288 21.524-181.42c8.566-17.351 108.061-138.371 112.454-151.33s38.876-69.186 77.751-95.103 99.496-69.186 146.937-90.71 95.103-38.876 151.33-56.227c56.227-17.351 246.433-25.917 272.35-25.917s125.413 17.351 198.771 17.351 220.515 38.876 246.433 56.227 259.391 108.061 276.523 112.454c17.351 4.393 73.578 82.144 99.496 90.71s108.061 112.454 116.627 151.33c8.785 38.656 26.137 90.71 17.351 133.759zM415.773 713.954c0 0 9.005 17.791 18.23 35.362 9.005 17.791 18.23 17.791 41.072 35.362s59.302 44.147 91.149 57.106c32.067 13.398 82.144 8.566 109.379 13.398 0.439-0.879-49.638-40.194-72.7-49.199-22.842-8.566-41.072-30.749-82.144-57.106s-63.914-61.718-63.914-61.718l-18.23-21.964-22.842 13.398v35.362zM1625.094 402.728c-34.483-21.524-190.206-25.917-190.206-25.917s-272.35-43.268-319.791-38.876c-47.442 4.393-198.771 4.393-254.998 8.566-56.227 4.393-267.957 34.483-337.143 51.834s-168.462 56.227-207.337 77.751-155.503 112.454-190.206 155.503c-34.483 43.268-21.524 90.71-21.524 112.454s55.788 56.227 82.144 73.578c24.599 16.473 107.402 21.085 204.482 21.524-1.098-0.879-1.977-1.757-3.075-2.636-41.072-34.922-58.423-87.635-58.423-87.635-4.832-4.393-4.832-70.503-9.005-88.074-4.832-17.791 32.067-48.32 73.139-83.901 41.072-35.362 86.976-35.362 118.824-44.147 32.067-8.566 155.064-44.147 209.973-39.754s109.379-4.393 164.288 0 104.986 39.754 123.216 48.32 45.904 57.106 45.904 83.901c0 23.501-14.496 84.341-17.791 119.482 93.346-14.935 349.882-70.943 376.018-78.41 30.31-8.566 164.288-73.578 185.813-82.144s56.227-73.578 56.227-73.578 3.953-86.098-30.53-107.842z" />
<glyph unicode="&#xe604;" glyph-name="uniE604" horiz-adv-x="1049" d="M765.016 666.23v213.624h-488.022v-213.624h-252.299v-650.081h992.617v650.081h-252.299zM348.817 808.032h342.537v-139.962h-342.537v139.962z" />
<glyph unicode="&#xe605;" glyph-name="uniE605" horiz-adv-x="967" d="M341.333 561.778h113.778v-113.778h-113.778v113.778zM512 561.778h113.778v-113.778h-113.778v113.778zM682.667 561.778h113.778v-113.778h-113.778v113.778zM341.333 391.111h113.778v-113.778h-113.778v113.778zM512 391.111h113.778v-113.778h-113.778v113.778zM682.667 391.111h113.778v-113.778h-113.778v113.778zM170.667 391.111h113.778v-113.778h-113.778v113.778zM341.333 220.444h113.778v-113.778h-113.778v113.778zM512 220.444h113.778v-113.778h-113.778v113.778zM170.667 220.444h113.778v-113.778h-113.778v113.778zM796.444 846.222v113.778h-170.667v-113.778h-284.444v113.778h-170.667v-113.778h-170.667v-910.222h967.111v910.222h-170.667zM682.667 903.111h56.889v-113.778h-56.889v113.778zM227.556 903.111h56.889v-113.778h-56.889v113.778zM910.222-7.111h-853.333v682.667h853.333v-682.667z" />
<glyph unicode="&#xe606;" glyph-name="uniE606" horiz-adv-x="1018" d="M273.59 780.384h471.095v-40.13h-471.095v40.13zM359.086 579.732h300.104v-40.13h-300.104v40.13zM976.743 445.384l-108.178 472.839h-725.835l-101.198-472.839 59.323-266.953h38.385v-200.651h40.13v200.651h654.297v-200.651h40.13v200.651h45.366l57.579 266.953zM83.408 445.384l92.475 432.71h661.277l97.709-432.71h-851.461z" />
<glyph unicode="&#xe607;" glyph-name="uniE607" horiz-adv-x="1263" d="M437.677-64c-148.645 140.387-289.032 289.032-437.677 429.419 74.323 74.323 140.387 140.387 206.452 206.452 74.323-74.323 148.645-148.645 222.968-222.968 206.452 206.452 421.161 412.903 627.613 611.097 66.065-66.065 132.129-132.129 206.452-198.194-280.774-280.774-553.29-553.29-825.806-825.806z" />
<glyph unicode="&#xe608;" glyph-name="uniE608" horiz-adv-x="1051" d="M1036.5 726.867c0 0-240.503 172.531-243.524 181.594 0 0-139.804 43.804-149.706 49.846-18.965 11.916-42.965-42.965-42.965-42.965l-44.814-406.671c-50.425 2.628-113.13 3.313-183.772-0.488-3.021 0-50.853-4.028-87.776-11.916-43.972-9.902-77.874-22.993-86.769-27.021-18.965-7.049 28.028-28.028 130.741-40.951 46.993-6.042 393.23-9.902 420.251 4.028 44.979 22.993-178.741 38.937-270.545 26.014l-89.79-1.007-35.916 9.063 30.881 15.944 71.832-4.028c28.343 4.944 116.564 6.008 224.604 11.604l4.99-0.695c0 0 96.839 41.958 108.755 44.979l101.874 72.839c0 0 142.657 49.846 149.706 56.895 15.944 15.944-8.056 62.937-8.056 62.937zM945.703 481.329c-16.951 26.014-62.937 40.951-92.811 47.832-50.853-28.028-89.79-49.846-89.79-49.846l-7.049 1.007c25.007-9.063 49.846-22.993 76.867-32.895l-32.895-30.881-153.734-16.951c-130.741-7.049-359.328 8.056-403.3 9.902 0 0-110.769 29.874-121.846 36.923 0 0-3.021 34.909 13.93 44.979l101.874 24 198.713 17.958c7.049 1.007 35.916 0 72.839-1.007 1.007 6.042 2.014 13.93 3.021 24-136.783-2.014-260.475-14.937-351.44-24-157.762-13.93-155.748-86.769-155.748-86.769l-3.021-179.748 52.867-157.762 139.804-124.699c0 0 73.846-24 143.664-33.902 175.72-27.021 288.503-5.035 288.503-5.035 49.846 2.014 178.741 73.846 178.741 73.846s76.867 70.825 98.853 112.783c0 0 20.979 26.014 32.895 70.825 16.951 64.951 27.021 156.755 27.021 156.755l-12.923 98.685c0 0 5.035 9.902-5.035 24zM869.843 208.77c0 0-21.986-26.014-28.028-43.972s-65.958-70.825-95.832-99.86c-29.874-29.874-166.657-64.951-202.573-64.951s-256.615 17.958-256.615 17.958-76.867 29.874-130.741 88.783c-113.79 119.832-73.846 246.545-73.846 270.545s57.902-10.909 75.86-10.909 220.531-25.007 286.489-25.007 246.545 7.049 246.545 7.049l193.678 25.007 10.909-60.923-25.846-103.72z" />
<glyph unicode="&#xe609;" glyph-name="uniE609" d="M512 960c-282.549 0-512-229.451-512-512s229.451-512 512-512 512 229.451 512 512-229.451 512-512 512zM796.444 214.756l-49.304-49.304-235.14 235.142-235.14-235.142-49.304 49.304 235.14 235.14-235.14 235.142 49.304 49.304 235.14-235.142 235.14 235.14 49.304-49.303-235.14-235.142 235.14-235.14z" />
<glyph unicode="&#xe60a;" glyph-name="uniE60A" horiz-adv-x="647" d="M556.030 557.714c-18.286-36.571-54.858-73.142-73.142-164.571-18.286 128-182.858 329.144-36.573 566.858-347.429-237.714-182.858-566.858-256-676.571 0 109.714-73.142 219.429-109.714 256 36.571-109.714-36.571-237.714-54.858-256-73.142-146.286 18.286-347.429 164.571-347.429-54.858 36.571-128 146.286-73.142 310.858 0-146.286 73.142-164.571 109.714-182.858 73.142 91.429 128 274.286 91.429 402.286 54.858-91.429 128-292.571 36.571-420.571 91.429 18.285 146.286 73.142 164.571 146.285 36.571-128-36.571-219.429-128-256 164.571 0 256 109.714 256 256s-128 237.714-91.427 365.714z" />
<glyph unicode="&#xe60b;" glyph-name="uniE60B" horiz-adv-x="1022" d="M511.049-63.998c-281.172 0-511.050 229.877-511.050 512.95s229.879 511.049 511.050 511.049 511.050-229.877 511.050-511.049-227.978-512.95-511.050-512.95zM511.049 908.705c-252.675 0-459.755-207.079-459.755-459.755 0-254.576 207.079-461.655 461.655-461.655s461.655 207.079 461.655 461.655c-1.899 252.676-208.978 459.755-463.554 459.755zM457.854 574.339h108.289v-429.357h-108.289v429.357zM457.854 751.022h108.289v-102.59h-108.289v102.59z" />
<glyph unicode="&#xe60c;" glyph-name="uniE60C" horiz-adv-x="1016" d="M191.925 644.049c0 175.189 142.967 315.951 315.951 315.951 175.359 0 316.121-140.762 316.121-315.951 0-57.661-16.111-110.744-41.55-156.873v0l-272.195-551.176-274.401 551.176c-27.813 46.129-43.924 99.212-43.924 156.873zM507.876 487.176c87.679 0 156.873 71.568 156.873 156.873 0 87.679-71.568 156.873-156.873 156.873-87.679 0-156.873-71.568-156.873-156.873 0.17-87.679 69.363-156.873 156.873-156.873z" />
<glyph unicode="&#xe60d;" glyph-name="uniE60D" horiz-adv-x="1174" d="M938.318 589.318c-2.001 0-6.003 0-8.003 0v306.143c0 8.005-4.001 14.007-10.004 18.008s-14.007 4.001-20.009 2.001l-274.13-120.055-280.131 120.057c-6.003 2.001-12.006 2.001-18.008 0l-268.127-124.059c-8.005-4.001-12.006-12.006-12.006-20.009v-652.309c0-8.005 4.001-14.007 10.006-18.008 4.001-4.001 8.005-4.001 12.006-4.001s6.003 0 10.004 2.001l260.125 130.061 276.13-126.061c6.003-2.001 12.006-2.001 18.008 0l202.095 80.038 100.047-204.096 164.077 328.155c16.008 28.013 26.013 60.029 26.013 94.043-0.003 104.048-86.041 188.090-188.091 188.090zM316.026 265.163l-224.107-112.052v604.285l224.106 104.049 0.002-596.282zM604.161 155.111l-244.115 112.052v592.28l244.115-104.049v-600.284zM648.182 155.111v602.284l236.111 104.049v-280.132c-78.037-22.009-136.065-94.043-136.065-180.083 0-34.016 10.004-66.031 24.011-94.043l42.021-86.040-166.079-66.032zM938.318 307.184c-52.024 0-94.043 42.021-94.043 94.043s42.021 94.043 94.043 94.043c52.024 0 94.045-42.021 94.045-94.043-2.001-52.026-42.019-94.043-94.043-94.043z" />
<glyph unicode="&#xe60e;" glyph-name="uniE60E" d="M512 960c-282.549 0-512-229.451-512-512s229.451-512 512-512 512 229.451 512 512-229.451 512-512 512zM362.193 150.282v595.436l436.147-297.718-436.147-297.718z" />
<glyph unicode="&#xe60f;" glyph-name="uniE60F" d="M861.076 414.802v66.395h-315.878v315.878h-66.395v-315.878l-315.877 0.001v-66.395l315.877-0.001v-315.878h66.395v315.878z" />
<glyph unicode="&#xe610;" glyph-name="uniE610" horiz-adv-x="1016" d="M1015.774 55.262l-287.871 296.096c-4.113 4.113-4.113 4.113-8.226 8.224 41.124 61.687 61.687 135.712 61.687 213.848 0 209.735-176.835 386.571-390.683 386.571s-390.68-176.835-390.68-390.683 176.835-390.682 390.682-390.682c78.136 0 152.16 24.674 213.848 61.687 4.113-4.113 4.113-4.113 8.224-8.226l287.871-296.096 115.149 119.262zM390.682 302.008c-148.049 0-267.309 119.262-267.309 267.309s119.262 267.31 267.309 267.31 267.309-119.262 267.309-267.309-119.26-267.31-267.309-267.31z" />
<glyph unicode="&#xe611;" glyph-name="uniE611" d="M1024 871.072l-88.926 88.926-423.073-423.073-423.075 423.073-88.926-88.926 423.075-423.073-423.075-423.073 88.926-88.926 423.075 423.073 423.073-423.073 88.926 88.926-423.073 423.073z" />
<glyph unicode="&#xe612;" glyph-name="uniE612" d="M90.505 616.597l421.495-421.495 421.495 421.495z" />
<glyph unicode="&#xe613;" glyph-name="uniE613" horiz-adv-x="501" d="M463.855 961.255l37.312-34.803-434.029-473.516 434.029-485.898-37.312-32.293-463.644 518.191z" />
<glyph unicode="&#xe614;" glyph-name="uniE614" d="M471.040 204.8c0 10.24 0 23.040-2.56 33.28l20.48 7.68-20.48 58.88-20.48-7.68c-10.24 20.48-23.040 38.4-38.4 53.76l12.8 17.92-51.2 35.84-15.36-17.92c-17.92 10.24-43.52 17.92-66.56 20.48v17.92h-71.68v-17.92c-20.48-2.56-35.84-10.24-53.76-20.48l-10.24 20.48-48.64-35.84 12.8-17.92c-15.36-15.36-28.16-33.28-38.4-53.76l-20.48 7.68-20.48-58.88 20.48-7.68c-2.56-10.24-2.56-20.48-2.56-33.28 0-10.24 0-23.040 2.56-33.28l-17.92-7.68 20.48-58.88 20.48 7.68c10.24-20.48 23.040-38.4 38.4-53.76l-12.8-17.92 51.2-35.84 5.12 17.92c17.92-10.24 33.28-17.92 53.76-20.48v-25.6h74.24v25.6c20.48 2.56 46.080 10.24 66.56 20.48l15.36-17.92 51.2 35.84-15.36 15.36c15.36 15.36 28.16 33.28 38.4 53.76l20.48-7.68 20.48 58.88-20.48 7.68c2.56 12.8 2.56 23.040 2.56 33.28zM391.68 197.12c-2.56-23.040-7.68-43.52-20.48-58.88-2.56-5.12-5.12-7.68-7.68-12.8-12.8-15.36-30.72-28.16-51.2-35.84-5.12-2.56-10.24-2.56-15.36-5.12-10.24-2.56-20.48-5.12-30.72-5.12s-20.48 2.56-30.72 5.12c-5.12 0-10.24 2.56-15.36 5.12-20.48 7.68-38.4 20.48-51.2 35.84-2.56 2.56-5.12 7.68-7.68 12.8-10.24 17.92-17.92 38.4-20.48 58.88 0 2.56 0 5.12 0 7.68s0 5.12 0 7.68c2.56 23.040 7.68 43.52 20.48 58.88 2.56 5.12 5.12 7.68 7.68 12.8 12.8 15.36 30.72 28.16 51.2 35.84 5.12 2.56 10.24 2.56 12.8 5.12 10.24 2.56 20.48 5.12 30.72 5.12s20.48-2.56 30.72-5.12c5.12 0 10.24-2.56 12.8-5.12 20.48-7.68 38.4-20.48 51.2-35.84 2.56-2.56 5.12-7.68 7.68-12.8 10.24-17.92 17.92-38.4 20.48-58.88 0-2.56 0-5.12 0-7.68 5.12-2.56 5.12-5.12 5.12-7.68zM668.16 488.96h-38.4l-92.16 325.12h-30.72l56.32-209.92h-345.6v56.32c0 38.4-17.92 69.12-53.76 69.12l-81.92 15.36v-250.88c-20.48-15.36-40.96-30.72-58.88-51.2-10.24-12.8-10.24-30.72 2.56-43.52s30.72-10.24 43.52 2.56c51.2 56.32 125.44 89.6 202.24 89.6 153.6 0 279.040-125.44 279.040-279.040 0-17.92-2.56-35.84-5.12-53.76-2.56-15.36 7.68-33.28 23.040-35.84 2.56 0 5.12 0 5.12 0 15.36 0 28.16 15.36 30.72 28.16s5.12 23.040 5.12 43.52h117.76c-20.48-20.48-33.28-56.32-33.28-89.6 0-69.12 56.32-130.56 128-130.56 69.12 0 128 58.88 128 130.56 0 33.28-12.8 66.56-33.28 89.6h87.040l-107.52 291.84h-156.16zM821.76 33.28c-38.4 0-69.12 30.72-69.12 69.12s30.72 69.12 69.12 69.12c38.4 0 69.12-30.72 69.12-69.12s-30.72-69.12-69.12-69.12zM552.96 875.52h-514.56v-40.96h522.24z" />
<glyph unicode="&#xe615;" glyph-name="uniE615" horiz-adv-x="1060" d="M570.405 176.537l472.68 524.549-70.442 63.414-444.235-493.093-441.391 493.093-70.442-63.414 479.373-532.078 35.137-37.312z" />
<glyph unicode="&#xe616;" glyph-name="uniE616" horiz-adv-x="1317" d="M244.467 764.946h197.076v-197.076h-197.076v197.076zM536.14 753.122h118.246v-39.415h-118.246v39.415zM536.14 674.292h157.661v-39.415h-157.661v39.415zM890.877 674.292h197.076v-39.415h-197.076v39.415zM693.8 753.122h236.491v-39.415h-236.491v39.415zM520.374 607.286h78.832v-39.415h-78.832v39.415zM654.386 595.461h157.661v-39.415h-157.661v39.415zM969.707 753.122h118.246v-39.415h-118.246v39.415zM733.216 674.292h118.246v-39.415h-118.246v39.415zM1151.017 843.777v-748.889h-985.38v748.889h985.38zM1190.432 883.193h-1064.21v-827.719h1064.21v827.719zM244.467 370.795h197.076v-197.076h-197.076v197.076zM536.14 358.971h118.246v-39.415h-118.246v39.415zM536.14 280.14h157.661v-39.415h-157.661v39.415zM890.877 280.14h197.076v-39.415h-197.076v39.415zM693.8 358.971h236.491v-39.415h-236.491v39.415zM520.374 213.134h78.832v-39.415h-78.832v39.415zM654.386 201.31h157.661v-39.415h-157.661v39.415zM969.707 358.971h118.246v-39.415h-118.246v39.415zM733.216 280.14h118.246v-39.415h-118.246v39.415zM260.233 477.216h827.719v-39.415h-827.719v39.415z" />
<glyph unicode="&#xe617;" glyph-name="uniE617" d="M73.010 918.031l908.817-908.817-33.249-33.249-908.817 908.817 33.249 33.25zM950.795 918.031l33.25-33.249-908.817-908.817-33.249 33.249 908.817 908.817z" />
<glyph unicode="&#xe618;" glyph-name="volume-medium" d="M719.53 128.47c-12.286 0-24.566 4.686-33.942 14.056-18.744 18.744-18.744 49.136 0 67.882 131.006 131.006 131.006 344.17 0 475.176-18.744 18.746-18.744 49.138 0 67.882 18.744 18.742 49.138 18.744 67.882 0 81.594-81.59 126.53-190.074 126.53-305.466 0-115.39-44.936-223.876-126.53-305.47-9.372-9.374-21.656-14.060-33.94-14.060v0zM549.020 218.98c-12.286 0-24.566 4.686-33.942 14.058-18.746 18.746-18.746 49.134 0 67.88 81.1 81.1 81.1 213.058 0 294.156-18.746 18.746-18.746 49.138 0 67.882s49.136 18.744 67.882 0c118.53-118.53 118.53-311.392 0-429.922-9.372-9.368-21.656-14.054-33.94-14.054zM416.006 0c-8.328 0-16.512 3.25-22.634 9.374l-246.626 246.626h-114.746c-17.672 0-32 14.326-32 32v320c0 17.672 14.328 32 32 32h114.746l246.626 246.628c9.154 9.154 22.916 11.89 34.874 6.936 11.958-4.952 19.754-16.622 19.754-29.564v-832c0-12.944-7.796-24.612-19.754-29.564-3.958-1.64-8.118-2.436-12.24-2.436z" />
</font>
</defs>
</svg>
